<?xml version="1.0" standalone="no"?>
<!DOCTYPE svg PUBLIC "-//W3C//DTD SVG 1.1//EN" "http://www.w3.org/Graphics/SVG/1.1/DTD/svg11.dtd" >
<svg xmlns="http://www.w3.org/2000/svg">
<metadata>Generated by IcoMoon</metadata>
<defs>
<font id="font-ext" horiz-adv-x="1024">
<font-face units-per-em="1024" ascent="960" descent="-64" />
<missing-glyph horiz-adv-x="1024" />
<glyph unicode="&#x20;" horiz-adv-x="512" d="" />
<glyph unicode="&#xe600;" glyph-name="collapse" d="M254.893 817.136h58.431c16.070 0 26.292-4.521 30.665-13.514s1.72-19.854-8.059-32.484l-91.996-118.287c-9.73-12.679-21.623-19.018-35.776-19.018-14.104 0-25.997 6.339-35.776 19.018l-91.996 118.287c-9.73 12.63-12.384 23.49-8.010 32.484s14.595 13.514 30.665 13.514h151.852zM938.461 797.367c4.519-3.383 6.769-7.701 6.734-12.941l0.035-82.096c-0.035-5.239-2.303-9.571-6.804-12.941-4.571-3.423-10.321-5.108-17.248-5.081l-503.278 0.026c-6.998-0.026-12.765 1.659-17.301 5.055-4.519 3.383-6.769 7.701-6.734 12.941l-0.018 82.123c-0.035 5.187 2.233 9.492 6.804 12.914 4.501 3.37 10.251 5.068 17.248 5.095l503.261-0.040c6.998 0.026 12.765-1.659 17.301-5.055zM938.485 521.374c4.519-3.583 6.77-8.155 6.734-13.704l0.011-40.585c-0.035-5.548-2.303-10.135-6.805-13.704-4.572-3.625-10.321-5.409-17.249-5.381l-503.295 0.028c-6.998-0.028-12.765 1.757-17.302 5.353-4.519 3.583-6.769 8.155-6.734 13.704l0.006 40.613c-0.035 5.493 2.233 10.051 6.805 13.676 4.501 3.569 10.251 5.367 17.249 5.395l503.277-0.042c6.998 0.028 12.765-1.757 17.302-5.353zM938.485 363.836c4.519-3.583 6.77-8.155 6.734-13.704l0.011-40.585c-0.035-5.548-2.303-10.135-6.805-13.704-4.572-3.625-10.321-5.409-17.249-5.381l-503.295 0.028c-6.998-0.028-12.765 1.756-17.302 5.353-4.519 3.583-6.769 8.155-6.734 13.704l0.006 40.613c-0.035 5.493 2.233 10.051 6.805 13.676 4.501 3.569 10.251 5.367 17.249 5.395l503.277-0.042c6.998 0.028 12.765-1.757 17.302-5.353zM938.485 206.297c4.519-3.583 6.77-8.155 6.734-13.704l0.011-40.585c-0.035-5.548-2.303-10.135-6.805-13.704-4.572-3.625-10.321-5.409-17.249-5.381l-503.295 0.028c-6.998-0.028-12.765 1.756-17.302 5.353-4.519 3.583-6.769 8.155-6.734 13.704l0.006 40.613c-0.035 5.493 2.233 10.051 6.805 13.676 4.501 3.569 10.251 5.367 17.249 5.395l503.277-0.042c6.998 0.028 12.765-1.757 17.302-5.353z" />
<glyph unicode="&#xe601;" glyph-name="columns" d="M963.288 854.573c-17.923 17.923-39.537 26.658-64.691 26.658h-768.013c-25.154 0-46.542-8.735-64.465-26.658-17.885-17.885-26.734-39.159-26.734-64.313v-694.858c0-25.154 8.849-47.028 26.734-64.913 17.923-17.923 39.311-27.22 64.465-27.22h768.013c25.154 0 46.768 9.297 64.691 27.22 17.885 17.885 26.96 39.759 26.96 64.913v694.858c0 25.154-9.075 46.428-26.959 64.313zM315.077 76.167h-184.493c-4.962 0-9.246 2.271-12.861 5.886s-5.438 8.348-5.438 13.348v640.031h202.793v-659.265zM393.846 735.432h236.308v-659.265h-236.308v659.265zM917.348 95.401c0-5-2.068-9.732-5.683-13.348s-8.106-5.886-13.068-5.886h-189.674v659.265h208.425v-640.031z" />
<glyph unicode="&#xe602;" glyph-name="dirty" d="M0 448v512h512z" />
<glyph unicode="&#xe603;" glyph-name="dirty-rtl" d="M512 960h512v-511.98z" />
<glyph unicode="&#xe604;" glyph-name="edit-html" d="M633.801 717.154l237.731-237.731-475.423-475.423h-237.731v237.731l475.423 475.423zM365.801 77.154l52 52-134.269 134.269-52-52v-61.154h73.115v-73.115h61.154zM664.647 607.423c0 8.385-4.192 12.577-12.538 12.577-3.846 0-7.077-1.346-9.731-4l-309.731-309.731c-2.654-2.654-4-5.885-4-9.692 0-8.385 4.192-12.577 12.577-12.577 3.808 0 7.038 1.346 9.731 4l309.692 309.731c2.692 2.654 4 5.885 4 9.692zM1024.109 662.269c0-20.192-7.077-37.308-21.154-51.423l-94.846-94.846-237.731 237.731 94.846 94.269c13.731 14.462 30.885 21.731 51.423 21.731 20.192 0 37.538-7.269 52-21.731l134.308-133.731c14.077-14.846 21.154-32.192 21.154-52zM178.853 630.5l-100.769 100.769 100.769 100.769c4.077 4.077 6.231 9.154 6.231 14.731s-2.154 10.654-6.231 14.731l-13.885 13.885c-4.077 4.077-9.154 6.231-14.731 6.231s-10.654-2.154-14.731-6.231l-129.385-129.385c-4.077-4.077-6.231-9.154-6.231-14.731s2.154-10.654 6.231-14.731l129.385-129.385c4.077-4.077 9.154-6.231 14.731-6.231s10.654 2.154 14.731 6.231l13.885 13.885c4.077 4.077 6.231 9.154 6.231 14.731s-2.154 10.654-6.231 14.731zM344.199 916.596c-2.731 4.769-6.923 6.558-12.577 8.25 0 0-29.577 1.392-32.808-0.416-4.731-2.769-8.077-0.457-9.731-5.88l-103.5-358.334c-1.692-5.577-1.115-11.284 1.692-16.207 2.692-4.769 6.923-8.375 12.577-10.106l16.654-5.096 4.308-2.038h1.885c3.385 0 6.654 1.719 9.846 3.45 4.692 2.654 8.077 7.719 9.846 13.296l103.5 357.861c1.692 5.654 1.077 10.413-1.692 15.221zM525.353 746l-129.385 129.385c-4.077 4.077-9.154 6.231-14.731 6.231s-10.654-2.154-14.731-6.231l-13.885-13.885c-4.077-4.077-6.231-9.154-6.231-14.731s2.154-10.654 6.231-14.731l100.769-100.769-100.769-100.769c-4.077-4.077-6.231-9.154-6.231-14.731s2.154-10.654 6.231-14.731l13.885-13.885c4.077-4.077 9.154-6.231 14.731-6.231s10.654 2.154 14.731 6.231l129.385 129.385c4.077 4.077 6.231 9.154 6.231 14.731s-2.154 10.654-6.231 14.731z" />
<glyph unicode="&#xe605;" glyph-name="equals" d="M1003.182 366.24c8.514-6.481 12.751-14.759 12.686-24.801l0.099-74.882c-0.063-10.039-4.342-18.343-12.822-24.803-8.614-6.56-19.444-9.788-32.493-9.741l-917.27 0.047c-13.187-0.047-24.046 3.18-32.594 9.685-8.514 6.481-12.751 14.759-12.686 24.803l-0.063 74.932c-0.063 9.941 4.207 18.189 12.822 24.748 8.48 6.46 19.31 9.714 32.493 9.763l917.24-0.073c13.187 0.047 24.046-3.18 32.594-9.685zM1003.182 654.221c8.514-6.481 12.751-14.759 12.686-24.801l0.099-74.882c-0.063-10.039-4.342-18.343-12.822-24.803-8.614-6.56-19.444-9.788-32.493-9.741l-917.27 0.047c-13.187-0.047-24.046 3.18-32.594 9.685-8.514 6.481-12.751 14.759-12.686 24.803l-0.063 74.932c-0.063 9.941 4.207 18.189 12.822 24.748 8.48 6.46 19.31 9.714 32.493 9.763l917.24-0.073c13.187 0.047 24.046-3.18 32.594-9.685z" />
<glyph unicode="&#xe606;" glyph-name="expand" d="M116.53 772.195v58.431c0 16.070 4.521 26.292 13.514 30.665s19.854 1.72 32.484-8.059l118.287-91.996c12.679-9.73 19.018-21.623 19.018-35.776 0-14.104-6.339-25.997-19.018-35.776l-118.287-91.996c-12.63-9.73-23.49-12.384-32.484-8.010s-13.514 14.595-13.514 30.665v151.852zM937.957 797.367c4.855-3.383 7.273-7.701 7.236-12.941l0.038-82.096c-0.038-5.239-2.475-9.571-7.311-12.941-4.912-3.423-11.089-5.108-18.533-5.081l-499.696 0.026c-7.519-0.026-13.716 1.659-18.59 5.055-4.855 3.383-7.273 7.701-7.236 12.941l-0.019 82.123c-0.038 5.187 2.399 9.492 7.311 12.914 4.836 3.37 11.014 5.068 18.533 5.095l499.677-0.040c7.519 0.026 13.716-1.659 18.59-5.055z" />
<glyph unicode="&#xe607;" glyph-name="group-by" d="M275.692 458.363v-32.228c0-4.473-1.57-8.28-4.699-11.409-3.14-3.129-6.936-4.699-11.409-4.699h-69.823v-69.823c0-4.473-1.57-8.28-4.699-11.409-3.129-3.14-6.936-4.699-11.409-4.699h-32.228c-4.473 0-8.28 1.559-11.409 4.699-3.14 3.129-4.699 6.936-4.699 11.409v69.823h-69.823c-4.473 0-8.28 1.57-11.409 4.699s-4.699 6.936-4.699 11.409v32.228c0 4.473 1.57 8.269 4.699 11.409 3.129 3.129 6.936 4.699 11.409 4.699h69.823v69.811c0 4.473 1.559 8.292 4.699 11.421 3.129 3.129 6.936 4.699 11.409 4.699h32.228c4.473 0 8.28-1.57 11.409-4.699s4.699-6.947 4.699-11.421v-69.811h69.823c4.473 0 8.269-1.57 11.409-4.699 3.129-3.14 4.699-6.936 4.699-11.409zM189.761 665.41c0-4.311-1.57-7.98-4.699-10.996-3.129-3.027-6.936-4.529-11.409-4.529h-32.228c-4.473 0-8.28 1.502-11.409 4.529-3.14 3.016-4.699 6.685-4.699 10.996v33.372c0 4.311 1.559 7.991 4.699 11.007 3.129 3.016 6.936 4.529 11.409 4.529h32.228c4.473 0 8.28-1.513 11.409-4.529s4.699-6.696 4.699-11.007v-33.372zM189.761 769.228c0-4.311-1.57-7.98-4.699-10.996-3.129-3.027-6.936-4.529-11.409-4.529h-32.228c-4.473 0-8.28 1.502-11.409 4.529-3.14 3.016-4.699 6.685-4.699 10.996v33.372c0 4.311 1.559 7.991 4.699 11.007 3.129 3.016 6.936 4.529 11.409 4.529h32.228c4.473 0 8.28-1.513 11.409-4.529s4.699-6.696 4.699-11.007v-33.372zM293.591 769.228c0-4.311-1.57-7.98-4.699-10.996-3.129-3.027-6.936-4.529-11.409-4.529h-32.228c-4.473 0-8.28 1.502-11.409 4.529-3.14 3.016-4.699 6.685-4.699 10.996v33.372c0 4.311 1.559 7.991 4.699 11.007 3.129 3.016 6.936 4.529 11.409 4.529h32.228c4.473 0 8.28-1.513 11.409-4.529s4.699-6.696 4.699-11.007v-33.372zM189.761 185.716c0-4.311-1.57-7.991-4.699-11.007s-6.936-4.529-11.409-4.529h-32.228c-4.473 0-8.28 1.513-11.409 4.529-3.14 3.016-4.699 6.696-4.699 11.007v33.372c0 4.311 1.559 7.98 4.699 10.996 3.129 3.027 6.936 4.529 11.409 4.529h32.228c4.473 0 8.28-1.502 11.409-4.529 3.129-3.016 4.699-6.685 4.699-10.996v-33.372zM189.761 81.899c0-4.311-1.57-7.991-4.699-11.007s-6.936-4.529-11.409-4.529h-32.228c-4.473 0-8.28 1.513-11.409 4.529-3.14 3.016-4.699 6.696-4.699 11.007v33.372c0 4.311 1.559 7.98 4.699 10.996 3.129 3.027 6.936 4.529 11.409 4.529h32.228c4.473 0 8.28-1.502 11.409-4.529 3.129-3.016 4.699-6.685 4.699-10.996v-33.372zM293.591 81.899c0-4.311-1.57-7.991-4.699-11.007s-6.936-4.529-11.409-4.529h-32.228c-4.473 0-8.28 1.513-11.409 4.529-3.14 3.016-4.699 6.696-4.699 11.007v33.372c0 4.311 1.559 7.98 4.699 10.996 3.129 3.027 6.936 4.529 11.409 4.529h32.228c4.473 0 8.28-1.502 11.409-4.529 3.129-3.016 4.699-6.685 4.699-10.996v-33.372zM950.869 854.573c-17.923 17.923-39.431 26.658-64.585 26.658h-479.799c-25.154 0-46.647-8.735-64.57-26.658-17.885-17.885-26.839-39.158-26.839-64.312v-694.85c0-25.154 8.954-47.055 26.839-64.94 17.923-17.923 39.416-27.247 64.57-27.247h479.799c25.154 0 46.662 9.324 64.585 27.247 17.885 17.885 26.854 39.786 26.854 64.94v694.85c0 25.154-8.969 46.427-26.854 64.312zM381.341 493.583h225.962v-177.589h-225.962v177.589zM686.159 493.583h218.673v-177.589h-218.673v177.589zM904.832 735.434v-177.574h-218.673v178.142l218.673-0.568zM607.304 736.002v-178.142h-225.962v177.574l225.962 0.568zM381.341 76.177v175.54h225.962v-174.972l-225.962-0.568zM899.25 82.063c-3.615-3.615-7.973-5.886-12.935-5.886l-200.157 0.568v174.972h218.673v-156.306c0-5-1.966-9.732-5.582-13.348z" />
<glyph unicode="&#xe608;" glyph-name="minimize" d="M914.289 231.442v-109.712c0-15.231-5.346-28.192-16-38.846-10.692-10.673-23.615-16-38.846-16h-694.885c-15.231 0-28.192 5.327-38.846 16-10.654 10.654-16 23.615-16 38.846v109.712c0 15.25 5.346 28.192 16 38.865 10.654 10.654 23.615 16 38.846 16h694.885c15.231 0 28.154-5.346 38.846-16 10.654-10.673 16-23.615 16-38.865z" />
<glyph unicode="&#xe609;" glyph-name="nw-handle" d="M197.192 20.596v109.692c0 15.231 5.346 28.192 16 38.846 10.654 10.692 23.615 16 38.846 16h109.731c15.231 0 28.192-5.308 38.846-16 10.654-10.654 16-23.615 16-38.846v-109.692c0-15.231-5.346-28.231-16-38.885s-23.615-16-38.846-16h-109.731c-15.231 0-28.192 5.346-38.846 16s-16 23.654-16 38.885zM197.192 313.135v109.731c0 15.231 5.346 28.192 16 38.846s23.615 16 38.846 16h109.731c15.231 0 28.192-5.346 38.846-16s16-23.615 16-38.846v-109.731c0-15.231-5.346-28.154-16-38.846-10.654-10.654-23.615-16-38.846-16h-109.731c-15.231 0-28.192 5.346-38.846 16-10.654 10.692-16 23.615-16 38.846zM197.192 605.712v109.731c0 15.231 5.346 28.192 16 38.846 10.654 10.692 23.615 16 38.846 16h109.731c15.231 0 28.192-5.308 38.846-16 10.654-10.654 16-23.615 16-38.846v-109.731c0-15.231-5.346-28.192-16-38.846s-23.615-16-38.846-16h-109.731c-15.231 0-28.192 5.346-38.846 16s-16 23.615-16 38.846zM544.615 770.288h109.731c15.231 0 28.192-5.346 38.846-16s16-23.615 16-38.846v-109.731c0-15.231-5.346-28.192-16-38.846s-23.615-16-38.846-16h-109.731c-15.231 0-28.154 5.346-38.846 16-10.654 10.654-16 23.615-16 38.846v109.731c0 15.231 5.346 28.192 16 38.846 10.692 10.654 23.615 16 38.846 16zM837.192 770.288h109.731c15.231 0 28.192-5.346 38.846-16 10.692-10.654 16-23.615 16-38.846v-109.731c0-15.231-5.308-28.192-16-38.846-10.654-10.654-23.615-16-38.846-16h-109.731c-15.231 0-28.192 5.346-38.846 16s-16 23.615-16 38.846v109.731c0 15.231 5.346 28.192 16 38.846s23.615 16 38.846 16z" />
<glyph unicode="&#xe60a;" glyph-name="ne-handle" d="M92.077 770.288h109.692c15.231 0 28.192-5.346 38.846-16 10.692-10.654 16-23.615 16-38.846v-109.731c0-15.231-5.308-28.192-16-38.846-10.654-10.654-23.615-16-38.846-16h-109.692c-15.231 0-28.231 5.346-38.885 16s-16 23.615-16 38.846v109.731c0 15.231 5.346 28.192 16 38.846s23.654 16 38.885 16zM384.615 770.288h109.731c15.231 0 28.192-5.346 38.846-16s16-23.615 16-38.846v-109.731c0-15.231-5.346-28.192-16-38.846s-23.615-16-38.846-16h-109.731c-15.231 0-28.154 5.346-38.846 16-10.654 10.654-16 23.615-16 38.846v109.731c0 15.231 5.346 28.192 16 38.846 10.692 10.654 23.615 16 38.846 16zM677.192 770.288h109.731c15.231 0 28.192-5.346 38.846-16 10.692-10.654 16-23.615 16-38.846v-109.731c0-15.231-5.308-28.192-16-38.846-10.654-10.654-23.615-16-38.846-16h-109.731c-15.231 0-28.192 5.346-38.846 16s-16 23.615-16 38.846v109.731c0 15.231 5.346 28.192 16 38.846s23.615 16 38.846 16zM841.769 422.865v-109.731c0-15.231-5.346-28.192-16-38.846s-23.615-16-38.846-16h-109.731c-15.231 0-28.192 5.346-38.846 16s-16 23.615-16 38.846v109.731c0 15.231 5.346 28.154 16 38.846 10.654 10.654 23.615 16 38.846 16h109.731c15.231 0 28.192-5.346 38.846-16 10.654-10.692 16-23.615 16-38.846zM841.769 130.288v-109.731c0-15.231-5.346-28.192-16-38.846-10.654-10.692-23.615-16-38.846-16h-109.731c-15.231 0-28.192 5.308-38.846 16-10.654 10.654-16 23.615-16 38.846v109.731c0 15.231 5.346 28.192 16 38.846s23.615 16 38.846 16h109.731c15.231 0 28.192-5.346 38.846-16s16-23.615 16-38.846z" />
<glyph unicode="&#xe60b;" glyph-name="sw-handle" d="M946.884 125.712h-109.692c-15.231 0-28.192 5.346-38.846 16-10.692 10.654-16 23.615-16 38.846v109.731c0 15.231 5.308 28.192 16 38.846 10.654 10.654 23.615 16 38.846 16h109.692c15.231 0 28.231-5.346 38.885-16s16-23.615 16-38.846v-109.731c0-15.231-5.346-28.192-16-38.846s-23.654-16-38.885-16zM654.346 125.712h-109.731c-15.231 0-28.192 5.346-38.846 16s-16 23.615-16 38.846v109.731c0 15.231 5.346 28.192 16 38.846s23.615 16 38.846 16h109.731c15.231 0 28.154-5.346 38.846-16 10.654-10.654 16-23.615 16-38.846v-109.731c0-15.231-5.346-28.192-16-38.846-10.692-10.654-23.615-16-38.846-16zM361.769 125.712h-109.731c-15.231 0-28.192 5.346-38.846 16-10.692 10.654-16 23.615-16 38.846v109.731c0 15.231 5.308 28.192 16 38.846 10.654 10.654 23.615 16 38.846 16h109.731c15.231 0 28.192-5.346 38.846-16s16-23.615 16-38.846v-109.731c0-15.231-5.346-28.192-16-38.846s-23.615-16-38.846-16zM197.192 473.135v109.731c0 15.231 5.346 28.192 16 38.846s23.615 16 38.846 16h109.731c15.231 0 28.192-5.346 38.846-16s16-23.615 16-38.846v-109.731c0-15.231-5.346-28.154-16-38.846-10.654-10.654-23.615-16-38.846-16h-109.731c-15.231 0-28.192 5.346-38.846 16-10.654 10.692-16 23.615-16 38.846zM197.192 765.712v109.731c0 15.231 5.346 28.192 16 38.846 10.654 10.692 23.615 16 38.846 16h109.731c15.231 0 28.192-5.308 38.846-16 10.654-10.654 16-23.615 16-38.846v-109.731c0-15.231-5.346-28.192-16-38.846s-23.615-16-38.846-16h-109.731c-15.231 0-28.192 5.346-38.846 16s-16 23.615-16 38.846z" />
<glyph unicode="&#xe60c;" glyph-name="se-handle" d="M841.769 875.404v-109.692c0-15.231-5.346-28.192-16-38.846-10.654-10.692-23.615-16-38.846-16h-109.731c-15.231 0-28.192 5.308-38.846 16-10.654 10.654-16 23.615-16 38.846v109.692c0 15.231 5.346 28.231 16 38.885s23.615 16 38.846 16h109.731c15.231 0 28.192-5.346 38.846-16s16-23.654 16-38.885zM841.769 582.865v-109.731c0-15.231-5.346-28.192-16-38.846s-23.615-16-38.846-16h-109.731c-15.231 0-28.192 5.346-38.846 16s-16 23.615-16 38.846v109.731c0 15.231 5.346 28.154 16 38.846 10.654 10.654 23.615 16 38.846 16h109.731c15.231 0 28.192-5.346 38.846-16 10.654-10.692 16-23.615 16-38.846zM841.769 290.288v-109.731c0-15.231-5.346-28.192-16-38.846-10.654-10.692-23.615-16-38.846-16h-109.731c-15.231 0-28.192 5.308-38.846 16-10.654 10.654-16 23.615-16 38.846v109.731c0 15.231 5.346 28.192 16 38.846s23.615 16 38.846 16h109.731c15.231 0 28.192-5.346 38.846-16s16-23.615 16-38.846zM494.346 125.712h-109.731c-15.231 0-28.192 5.346-38.846 16s-16 23.615-16 38.846v109.731c0 15.231 5.346 28.192 16 38.846s23.615 16 38.846 16h109.731c15.231 0 28.154-5.346 38.846-16 10.654-10.654 16-23.615 16-38.846v-109.731c0-15.231-5.346-28.192-16-38.846-10.692-10.654-23.615-16-38.846-16zM201.769 125.712h-109.731c-15.231 0-28.192 5.346-38.846 16-10.692 10.654-16 23.615-16 38.846v109.731c0 15.231 5.308 28.192 16 38.846 10.654 10.654 23.615 16 38.846 16h109.731c15.231 0 28.192-5.346 38.846-16s16-23.615 16-38.846v-109.731c0-15.231-5.346-28.192-16-38.846s-23.615-16-38.846-16z" />
<glyph unicode="&#xe60d;" glyph-name="text-background-color" d="M1004.936 941.284c-12.74 12.463-28.138 18.716-46.285 18.716l-893.302-0.919c-18.147 0-33.591-6.254-46.285-18.716-12.694-12.485-19.064-27.625-19.064-45.464v-894.742c0-17.817 6.37-32.979 19.064-45.442 12.694-12.485 28.138-18.717 46.285-18.717l893.302 0.919c18.147 0 33.545 6.231 46.285 18.717 12.694 12.463 19.064 27.625 19.064 45.442v894.743c0 17.839-6.37 32.979-19.064 45.464zM881.466 624.937c-15.116-5.138-28.313-8.428-39.553-9.906-9.712 16.116-20.168 39.551-31.407 70.304-1.175 3.29-3.329 12.087-6.423 26.355s-5.913 27.722-8.42 40.364c-2.545 12.641-3.994 19.11-4.386 19.48-2.311 2.957-4.66 5.249-6.971 6.875-2.31 1.663-5.326 2.735-9.007 3.29-3.72 0.554-6.227 0.998-7.558 1.368-1.371 0.37-4.856 0.481-10.495 0.296s-8.811-0.296-9.595-0.296c-6.618 0-19.502 0.111-38.691 0.296s-33.639 0.259-43.351 0.259c-9.712 0-22.087-0.37-37.242-1.072-15.116-0.739-28.901-1.848-41.315-3.327-3.485-29.644-5.013-54.558-4.621-74.666 0-34.413 0.353-105.456 1.136-213.093s1.175-190.916 1.175-249.872c0-5.84-0.509-18.925-1.449-39.255-0.979-20.33-0.979-37.074 0-50.233 0.94-13.196 3.368-25.837 7.284-37.924 15.508-7.688 39.553-15.451 72.135-23.324s55.844-14.748 69.824-20.588c1.919-14.638 2.898-23.804 2.898-27.464 0-5.138-0.588-10.424-1.762-15.931l-19.776-0.554c-29.488-0.702-71.743 0.739-126.843 4.399-55.061 3.659-95.201 5.508-120.42 5.508-19.385 0-48.677-1.663-87.838-4.953-39.2-3.29-65.927-4.953-85.704-4.953-1.136 18.666 1.038 28.203 1.038 28.573v4.953c0 9.869 15.762 17.742 32.993 23.583 17.27 5.877 35 11.2 55.951 15.931 20.951 4.768 35.377 9.721 44.697 14.822 7.362 15.377 10.698 85.496 10.698 210.358 0 36.963-0.206 92.445-1.381 166.372-1.136 73.964-1.342 129.446-1.342 166.409v64.242c0 0.739-0.475 3.586-0.28 8.538 0.196 4.916 0.036 9.5 0.036 13.713s-0.334 8.871-0.726 14.009c-0.392 5.138-1.048 9.5-1.831 13.196-0.783 3.623-1.758 6.21-2.933 7.688-4.269 4.362-35.693 6.579-94.278 6.579-12.806 0-30.828-2.218-54.129-6.579-23.262-4.399-38.774-9.167-46.528-14.305-7.362-4.768-13.983-18.038-19.779-39.809-5.835-21.771-11.945-42.101-18.328-60.953-6.422-18.851-13.656-28.646-23.76-29.386-16.291 9.537-31.592 17.595-31.592 24.174v210.321l46.16 0.554 30.912-14.822c4.66-1.848 45.336-2.735 122.523-2.735 17.074 0 42.523 0.333 76.671 1.072 34.109 0.739 59.659 1.109 76.733 1.109 13.981 0 34.783-1.264 62.509-1.412 27.726-0.222 48.568-1.449 62.509-1.449h170.508c2.311 0 6.383 1.079 12.218 0.894 5.796-0.185 9.79 0.392 11.905 0.577s5.248 0.991 9.32 1.915c4.073 0.924 7.441 2.695 10.182 5.097 2.702 2.366 5.6 5.654 8.733 9.683l24.437 0.59c1.527 0 4.269-0.093 8.146-0.278s6.579-0.25 8.146-0.25c0.744-40.992 1.136-102.495 1.136-184.516 0-29.312-0.94-49.231-2.898-59.839z" />
<glyph unicode="&#xe60e;" glyph-name="text-color" d="M236.819 880.765l26.575-12.454c3.943-1.553 38.571-2.298 103.882-2.298 14.447 0 36.085 0.28 64.98 0.901 28.862 0.621 50.533 0.932 64.98 0.932 11.83 0 29.458-0.093 52.919-0.217 23.461-0.186 41.122-0.248 52.919-0.248h144.276c1.955 0 5.401-0.062 10.339-0.217 4.904-0.155 8.284-0.155 10.073 0s4.44 0.59 7.886 1.367c3.446 0.776 6.296 2.143 8.615 4.162 2.286 1.988 4.739 4.69 7.389 8.075l20.677 0.466c1.292 0 3.612-0.093 6.892-0.248s5.567-0.217 6.892-0.217c0.63-34.444 0.961-86.124 0.961-155.042 0-24.629-0.795-41.369-2.452-50.283-12.791-4.317-23.958-7.081-33.468-8.324-8.218 13.541-17.065 33.232-26.575 59.073-0.994 2.764-2.817 10.156-5.434 22.144s-5.004 23.294-7.124 33.916c-2.154 10.622-3.38 16.057-3.711 16.368-1.955 2.485-3.943 4.41-5.898 5.777-1.955 1.398-4.507 2.298-7.621 2.764-3.148 0.466-5.269 0.839-6.395 1.149-1.16 0.311-4.109 0.404-8.881 0.248s-7.456-0.248-8.118-0.248c-5.6 0-16.502 0.093-32.739 0.248s-28.464 0.217-36.682 0.217-18.689-0.311-31.513-0.901c-12.791-0.621-24.455-1.553-34.959-2.795-2.949-24.909-4.241-45.842-3.91-62.737 0-28.915 0.298-88.609 0.961-179.050s0.994-160.415 0.994-209.953c0-4.907-0.431-15.902-1.226-32.984-0.828-17.082-0.828-31.151 0-42.208 0.795-11.088 2.85-21.71 6.163-31.866 13.122-6.46 33.468-12.982 61.037-19.598s47.252-12.392 59.082-17.299c1.624-12.299 2.452-20.001 2.452-23.076 0-4.317-0.497-8.758-1.491-13.386l-16.734-0.466c-24.952-0.59-60.706 0.621-107.329 3.696-46.59 3.075-80.554 4.628-101.894 4.628-16.402 0-41.188-1.398-74.325-4.162-33.169-2.764-58.121-4.162-74.855-4.162-0.961 15.684-1.458 23.697-1.458 24.008v4.162c5.567 8.293 15.673 14.908 30.253 19.815 14.613 4.938 30.784 9.411 48.512 13.386 17.728 4.007 30.519 8.168 38.405 12.454 6.23 12.92 9.344 71.838 9.344 176.752 0 31.058-0.497 77.676-1.491 139.793-0.961 62.147-1.458 108.766-1.458 139.824v53.979c0 0.621 0.066 3.013 0.232 7.174 0.166 4.131 0.265 7.982 0.265 11.523s-0.166 7.454-0.497 11.771c-0.331 4.317-0.828 7.982-1.491 11.088-0.663 3.044-1.458 5.218-2.452 6.46-3.612 3.665-30.187 5.528-79.759 5.528-10.836 0-26.078-1.863-45.794-5.528-19.683-3.696-32.805-7.702-39.366-12.020-6.23-4.006-11.83-15.156-16.734-33.45-4.937-18.293-10.107-35.375-15.508-51.215-5.434-15.84-12.393-24.070-20.942-24.691-13.785 8.013-22.963 14.784-27.569 20.312v176.721l39.896 0.466zM907.294 127.582c4.657-3.547 6.976-8.074 6.94-13.568l0.036-86.074c-0.036-5.493-2.374-10.034-7.013-13.567-4.711-3.589-10.637-5.355-17.776-5.328l-754.981 0.028c-7.212-0.028-13.155 1.739-17.83 5.3-4.657 3.547-6.976 8.074-6.94 13.567l-0.018 86.101c-0.036 5.438 2.301 9.951 7.013 13.54 4.639 3.533 10.564 5.314 17.776 5.341l754.963-0.041c7.212 0.028 13.155-1.739 17.83-5.3z" />
<glyph unicode="&#xe60f;" glyph-name="text-decrease" d="M877.975 884h58.431c16.070 0 26.292-4.521 30.665-13.514s1.72-19.854-8.059-32.484l-91.996-118.287c-9.73-12.679-21.623-19.018-35.776-19.018-14.104 0-25.997 6.339-35.776 19.018l-91.996 118.287c-9.73 12.63-12.384 23.49-8.010 32.484s14.595 13.514 30.665 13.514h151.852zM89.361 722.486l22.962-12.542c3.407-1.564 33.326-2.314 89.756-2.314 12.483 0 31.178 0.281 56.144 0.907 24.937 0.626 43.661 0.938 56.144 0.938 10.221 0 25.452-0.094 45.723-0.219 20.27-0.188 35.53-0.25 45.723-0.25h124.657c1.689 0 4.667-0.063 8.933-0.219 4.237-0.156 7.158-0.156 8.704 0s3.836 0.594 6.814 1.376c2.978 0.782 5.44 2.158 7.444 4.191 1.976 2.002 4.094 4.723 6.385 8.132l17.865 0.469c1.117 0 3.121-0.094 5.955-0.25s4.81-0.219 5.955-0.219c0.544-34.686 0.83-86.73 0.83-156.133 0-24.802-0.687-41.66-2.119-50.637-11.051-4.347-20.7-7.131-28.917-8.382-7.1 13.637-14.745 33.466-22.962 59.488-0.859 2.784-2.434 10.227-4.695 22.3s-4.323 23.457-6.156 34.154c-1.861 10.697-2.92 16.17-3.207 16.483-1.689 2.502-3.407 4.441-5.096 5.817-1.689 1.407-3.894 2.314-6.585 2.784-2.72 0.469-4.552 0.844-5.526 1.157-1.002 0.313-3.55 0.407-7.673 0.25s-6.442-0.25-7.014-0.25c-4.839 0-14.258 0.094-28.287 0.25s-24.593 0.219-31.694 0.219-16.148-0.313-27.227-0.907c-11.051-0.626-21.129-1.564-30.205-2.815-2.548-25.084-3.665-46.164-3.378-63.179 0-29.119 0.258-89.232 0.83-180.31s0.859-161.544 0.859-211.43c0-4.942-0.372-16.014-1.059-33.216-0.716-17.202-0.716-31.37 0-42.505 0.687-11.166 2.462-21.862 5.325-32.090 11.338-6.506 28.917-13.074 52.737-19.736s40.827-12.479 51.048-17.421c1.403-12.386 2.119-20.142 2.119-23.239 0-4.347-0.429-8.82-1.288-13.48l-14.458-0.469c-21.559-0.594-52.451 0.626-92.734 3.722-40.254 3.096-69.6 4.66-88.038 4.66-14.172 0-35.588-1.407-64.218-4.191-28.659-2.784-50.218-4.191-64.676-4.191-0.83 15.795-1.26 23.864-1.26 24.177v4.191c4.81 8.351 13.542 15.013 26.14 19.954 12.626 4.973 26.598 9.477 41.915 13.48 15.317 4.035 26.369 8.226 33.183 12.542 5.382 13.011 8.074 72.343 8.074 177.995 0 31.277-0.429 78.223-1.288 140.776-0.83 62.585-1.26 109.531-1.26 140.807v54.359c0 0.626 0.057 3.034 0.2 7.225 0.143 4.16 0.229 8.038 0.229 11.604s-0.143 7.506-0.429 11.854-0.716 8.038-1.288 11.166c-0.573 3.065-1.26 5.254-2.119 6.506-3.121 3.691-26.082 5.567-68.913 5.567-9.362 0-22.532-1.877-39.567-5.567-17.006-3.722-28.344-7.757-34.013-12.104-5.383-4.035-10.221-15.263-14.458-33.685-4.266-18.422-8.732-35.624-13.399-51.575-4.695-15.951-10.708-24.239-18.094-24.865-11.91 8.069-19.841 14.888-23.82 20.455v177.964l34.471 0.469z" />
<glyph unicode="&#xe610;" glyph-name="text-increase" d="M42.39 886.378l28.236-15.423c4.19-1.923 40.981-2.846 110.375-2.846 15.35 0 38.341 0.346 69.042 1.115 30.666 0.769 53.691 1.154 69.042 1.154 12.569 0 31.299-0.115 56.226-0.269 24.927-0.231 43.692-0.308 56.226-0.308h153.293c2.077 0 5.739-0.077 10.985-0.269 5.211-0.192 8.802-0.192 10.703 0s4.718 0.731 8.379 1.692c3.662 0.962 6.689 2.654 9.154 5.154 2.429 2.462 5.035 5.808 7.851 10l21.969 0.577c1.373 0 3.838-0.115 7.323-0.308s5.915-0.269 7.323-0.269c0.669-42.654 1.021-106.654 1.021-192 0-30.5-0.845-51.231-2.605-62.269-13.59-5.346-25.455-8.769-35.559-10.308-8.731 16.769-18.132 41.154-28.236 73.154-1.056 3.423-2.993 12.577-5.774 27.423s-5.316 28.846-7.57 42c-2.288 13.154-3.591 19.885-3.943 20.269-2.077 3.077-4.19 5.462-6.267 7.154-2.077 1.731-4.788 2.846-8.098 3.423-3.345 0.577-5.598 1.038-6.795 1.423-1.232 0.385-4.366 0.5-9.436 0.308s-7.922-0.308-8.626-0.308c-5.95 0-17.533 0.115-34.785 0.308s-30.243 0.269-38.975 0.269c-8.731 0-19.857-0.385-33.482-1.115-13.59-0.769-25.983-1.923-37.144-3.462-3.133-30.846-4.507-56.769-4.154-77.692 0-35.808 0.317-109.731 1.021-221.731s1.056-198.654 1.056-260c0-6.077-0.458-19.692-1.303-40.846-0.88-21.154-0.88-38.577 0-52.269 0.845-13.731 3.028-26.885 6.549-39.462 13.942-8 35.559-16.077 64.852-24.269s50.206-15.346 62.775-21.423c1.725-15.231 2.605-24.769 2.605-28.577 0-5.346-0.528-10.846-1.584-16.577l-17.78-0.577c-26.511-0.731-64.5 0.769-114.037 4.577-49.502 3.808-85.589 5.731-108.263 5.731-17.428 0-43.763-1.731-78.97-5.154-35.243-3.423-61.754-5.154-79.533-5.154-1.021 19.423-1.549 29.346-1.549 29.731v5.154c5.915 10.269 16.653 18.462 32.144 24.538 15.526 6.115 32.708 11.654 51.544 16.577 18.836 4.962 32.426 10.115 40.805 15.423 6.619 16 9.928 88.962 9.928 218.885 0 38.461-0.528 96.192-1.584 173.115-1.021 76.962-1.549 134.692-1.549 173.154v66.846c0 0.769 0.070 3.731 0.246 8.885 0.176 5.115 0.282 9.885 0.282 14.269s-0.176 9.231-0.528 14.577-0.88 9.885-1.584 13.731c-0.704 3.769-1.549 6.462-2.605 8-3.838 4.538-32.074 6.846-84.744 6.846-11.513 0-27.708-2.308-48.657-6.846-20.913-4.577-34.855-9.538-41.826-14.885-6.619-4.962-12.569-18.769-17.78-41.423-5.246-22.654-10.738-43.808-16.477-63.423-5.774-19.615-13.168-29.808-22.251-30.577-14.646 9.923-24.399 18.308-29.293 25.154v218.846l42.39 0.577zM839.443 700.696h-58.431c-16.070 0-26.292 4.521-30.665 13.514s-1.72 19.854 8.059 32.484l91.996 118.287c9.73 12.679 21.623 19.018 35.776 19.018 14.104 0 25.997-6.339 35.776-19.018l91.996-118.287c9.73-12.63 12.384-23.49 8.010-32.484s-14.595-13.514-30.665-13.514h-151.852z" />
<glyph unicode="&#xe611;" glyph-name="unpin" d="M366.57 120.814c-9.858 0-18.391 3.562-25.598 10.769-7.166 7.207-10.769 15.74-10.769 25.515v243.722l-274.415 28.995c-4.473 0.746-8.367 2.734-11.598 5.965s-4.805 7.124-4.805 11.598v0.58c0 10.272 5.053 16.32 15.326 18.225l275.492 43.161v229.473c0 9.858 3.604 18.391 10.769 25.598 7.207 7.207 15.74 10.77 25.598 10.77 46.557 0 88.517-14.829 125.796-44.569 37.32-29.74 55.96-63.374 55.96-100.819h290.859c0 19.634 7.166 36.699 21.58 51.114 14.373 14.415 31.439 21.539 51.114 21.539 19.716 0 36.741-7.124 51.155-21.539 14.373-14.415 21.58-31.48 21.58-51.114v-363.595c0-19.716-7.207-36.699-21.58-51.114-14.415-14.415-31.439-21.622-51.155-21.622-19.675 0-36.741 7.207-51.114 21.622-14.415 14.415-21.58 31.397-21.58 51.114h-290.859c0-37.528-18.64-71.079-55.96-100.819-37.279-29.74-79.239-44.569-125.796-44.569zM566.51 502.552h254.492c5.302 0 9.651 1.657 13.048 5.053 3.438 3.397 5.136 7.787 5.136 13.089s-1.698 9.693-5.136 13.089c-3.397 3.397-7.746 5.053-13.048 5.053h-254.492c-5.302 0-9.651-1.657-13.048-5.053-3.438-3.397-5.136-7.787-5.136-13.089s1.698-9.693 5.136-13.089c3.397-3.397 7.746-5.053 13.048-5.053z" />
<glyph unicode="&#xe612;" glyph-name="equals-vertical" d="M430.24-43.182c-6.481-8.514-14.759-12.751-24.803-12.686l-74.882-0.099c-10.039 0.063-18.343 4.342-24.803 12.822-6.56 8.614-9.788 19.444-9.741 32.493v143.692l0.047 773.579c-0.047 13.187 3.18 24.046 9.685 32.594 6.481 8.514 14.759 12.751 24.803 12.686l74.932 0.063c9.941 0.063 18.189-4.207 24.748-12.822 6.46-8.48 9.714-19.31 9.763-32.493l-0.073-917.24c0.047-13.187-3.18-24.046-9.685-32.594zM718.221-43.182c-6.481-8.514-14.759-12.751-24.803-12.686l-74.882-0.099c-10.039 0.063-18.343 4.342-24.803 12.822-6.56 8.614-9.788 19.444-9.741 32.493v143.692l0.047 773.579c-0.047 13.187 3.18 24.046 9.685 32.594 6.481 8.514 14.759 12.751 24.803 12.686l74.932 0.063c9.941 0.063 18.189-4.207 24.748-12.822 6.46-8.48 9.714-19.31 9.763-32.493l-0.073-917.24c0.047-13.187-3.18-24.046-9.685-32.594z" />
<glyph unicode="&#xe613;" glyph-name="checkbox-checked" d="M841.442 392.019v-181.731c0-45.346-16.115-84.115-48.308-116.269-32.192-32.231-70.923-48.308-116.269-48.308h-475.423c-45.346 0-84.115 16.077-116.308 48.308-32.192 32.154-48.269 70.923-48.269 116.269v475.423c0 45.308 16.077 84.077 48.269 116.308 32.192 32.154 70.962 48.269 116.308 48.269h475.423c24 0 46.269-4.769 66.846-14.269 5.731-2.692 9.154-7.077 10.308-13.154 1.115-6.5-0.577-12-5.154-16.577l-28-28c-3.808-3.808-8.192-5.731-13.154-5.731-1.115 0-2.846 0.385-5.115 1.154-8.769 2.308-17.346 3.423-25.731 3.423h-475.423c-25.154 0-46.692-8.962-64.577-26.846-17.923-17.923-26.846-39.423-26.846-64.577v-475.423c0-25.154 8.923-46.654 26.846-64.577 17.885-17.923 39.423-26.846 64.577-26.846h475.423c25.154 0 46.654 8.923 64.577 26.846 17.885 17.923 26.846 39.423 26.846 64.577v145.115c0 4.962 1.731 9.154 5.154 12.615l36.577 36.538c3.808 3.808 8.192 5.731 13.115 5.731 2.308 0 4.577-0.577 6.885-1.731 7.615-3.038 11.423-8.538 11.423-16.538zM973.442 671.404l-465.154-465.115c-9.154-9.154-20-13.731-32.577-13.731s-23.423 4.577-32.577 13.731l-245.692 245.731c-9.154 9.115-13.731 20-13.731 32.538 0 12.577 4.577 23.462 13.731 32.577l62.846 62.885c9.154 9.115 20 13.692 32.577 13.692s23.423-4.577 32.577-13.692l150.269-150.308 369.731 369.692c9.154 9.154 20 13.731 32.577 13.731s23.423-4.577 32.577-13.731l62.846-62.846c9.154-9.154 13.692-20 13.692-32.538 0-12.615-4.538-23.462-13.692-32.615z" />
<glyph unicode="&#xe614;" glyph-name="checkbox-unchecked" d="M841.442 685.711v-475.423c0-45.346-16.115-84.115-48.308-116.308s-70.923-48.269-116.269-48.269h-475.423c-45.346 0-84.115 16.077-116.308 48.269s-48.269 70.962-48.269 116.308v475.423c0 45.308 16.077 84.077 48.269 116.269s70.962 48.308 116.308 48.308h475.423c45.346 0 84.077-16.115 116.269-48.308s48.308-70.962 48.308-116.269zM676.865 777.134h-475.423c-25.154 0-46.692-8.962-64.577-26.846-17.923-17.923-26.846-39.462-26.846-64.577v-475.423c0-25.154 8.923-46.692 26.846-64.577 17.885-17.923 39.423-26.885 64.577-26.885h475.423c25.154 0 46.654 8.962 64.577 26.885 17.885 17.885 26.846 39.423 26.846 64.577v475.423c0 25.115-8.962 46.654-26.846 64.577-17.923 17.885-39.423 26.846-64.577 26.846z" />
<glyph unicode="&#xe615;" glyph-name="chevron-left" d="M741.646 776.293c0-6.8-2.603-12.856-7.862-18.168l-310.179-310.126 310.179-310.179c5.259-5.259 7.862-11.315 7.862-18.168s-2.603-12.909-7.862-18.115l-39.47-39.523c-5.259-5.206-11.315-7.862-18.168-7.862s-12.909 2.656-18.115 7.862l-367.816 367.816c-5.259 5.259-7.862 11.315-7.862 18.168 0 6.8 2.603 12.856 7.862 18.168l367.816 367.763c5.206 5.259 11.262 7.915 18.115 7.915s12.909-2.656 18.168-7.915l39.47-39.47c5.259-5.259 7.862-11.315 7.862-18.168z" />
<glyph unicode="&#xe616;" glyph-name="chevron-right" d="M282.354 119.706c0 6.8 2.603 12.856 7.862 18.168l310.179 310.126-310.179 310.179c-5.259 5.259-7.862 11.315-7.862 18.168s2.603 12.909 7.862 18.115l39.47 39.523c5.259 5.206 11.315 7.862 18.168 7.862s12.909-2.656 18.115-7.862l367.816-367.816c5.259-5.259 7.862-11.315 7.862-18.168 0-6.8-2.603-12.856-7.862-18.168l-367.816-367.763c-5.206-5.259-11.262-7.915-18.115-7.915s-12.909 2.656-18.168 7.915l-39.47 39.47c-5.259 5.259-7.862 11.315-7.862 18.168z" />
<glyph unicode="&#xe617;" glyph-name="double-chevron-left" d="M433.858 448c0 6.853 2.656 12.909 7.915 18.168l367.763 367.816c5.259 5.206 11.315 7.862 18.168 7.862s12.909-2.656 18.115-7.862l39.47-39.523c5.259-5.206 7.915-11.262 7.915-18.115s-2.656-12.909-7.915-18.168l-310.179-310.179 310.179-310.126c5.259-5.312 7.915-11.368 7.915-18.168 0-6.853-2.656-12.909-7.915-18.168l-39.47-39.47c-5.206-5.259-11.262-7.915-18.115-7.915s-12.909 2.656-18.168 7.915l-367.763 367.763c-5.259 5.312-7.915 11.368-7.915 18.168zM130.797 448c0 6.853 2.656 12.909 7.862 18.168l367.816 367.816c5.259 5.206 11.315 7.862 18.168 7.862 6.8 0 12.856-2.656 18.115-7.862l39.47-39.523c5.259-5.206 7.915-11.262 7.915-18.115s-2.656-12.909-7.915-18.168l-310.179-310.179 310.179-310.126c5.259-5.312 7.915-11.368 7.915-18.168 0-6.853-2.656-12.909-7.915-18.168l-39.47-39.47c-5.259-5.259-11.315-7.915-18.115-7.915-6.853 0-12.909 2.656-18.168 7.915l-367.816 367.763c-5.206 5.312-7.862 11.368-7.862 18.168z" />
<glyph unicode="&#xe618;" glyph-name="double-chevron-right" d="M590.142 448c0-6.853-2.656-12.909-7.915-18.168l-367.763-367.816c-5.259-5.206-11.315-7.862-18.168-7.862s-12.909 2.656-18.115 7.862l-39.47 39.523c-5.259 5.206-7.915 11.262-7.915 18.115s2.656 12.909 7.915 18.168l310.179 310.179-310.179 310.126c-5.259 5.312-7.915 11.368-7.915 18.168 0 6.853 2.656 12.909 7.915 18.168l39.47 39.47c5.206 5.259 11.262 7.915 18.115 7.915s12.909-2.656 18.168-7.915l367.763-367.763c5.259-5.312 7.915-11.368 7.915-18.168zM893.203 448c0-6.853-2.656-12.909-7.862-18.168l-367.816-367.816c-5.259-5.206-11.315-7.862-18.168-7.862-6.8 0-12.856 2.656-18.115 7.862l-39.47 39.523c-5.259 5.206-7.915 11.262-7.915 18.115s2.656 12.909 7.915 18.168l310.179 310.179-310.179 310.126c-5.259 5.312-7.915 11.368-7.915 18.168 0 6.853 2.656 12.909 7.915 18.168l39.47 39.47c5.259 5.259 11.315 7.915 18.115 7.915 6.853 0 12.909-2.656 18.168-7.915l367.816-367.763c5.206-5.312 7.862-11.368 7.862-18.168z" />
<glyph unicode="&#xe619;" glyph-name="sort-down" d="M449.079 137.135c0-4.577-1.923-9.154-5.731-13.731l-182.269-182.269c-3.808-3.423-8.192-5.115-13.154-5.115-4.577 0-8.962 1.692-13.154 5.115l-182.846 182.846c-5.692 6.115-7.038 12.769-4 20 3.038 7.615 8.769 11.423 17.154 11.423h109.692v786.308c0 5.308 1.731 9.692 5.154 13.154 3.423 3.423 7.808 5.115 13.154 5.115h109.692c5.346 0 9.731-1.692 13.154-5.115 3.423-3.462 5.154-7.846 5.154-13.154v-786.308h109.692c5.346 0 9.731-1.692 13.154-5.115s5.154-7.808 5.154-13.154zM977.656 581.711v-60.577h-164.577v60.577h42.846l-26.846 82.269h-138.846l-26.885-82.269h42.885v-60.577h-164v60.577h40l131.423 378.269h92.577l131.423-378.269h40zM926.771 69.135v-133.115h-333.692v51.423l210.846 302.269c4.577 6.846 8.577 12 12 15.423l6.308 5.154v1.692c-0.769 0-2-0.077-3.731-0.269s-3.154-0.308-4.269-0.308c-4.577-1.115-10.308-1.692-17.154-1.692h-132.577v-65.731h-68.577v130.885h324v-50.885l-210.846-302.846c-2.308-3.038-6.308-8-12-14.846l-6.308-6.269v-1.154l8 1.154c3.462 0.769 9.154 1.115 17.154 1.115h141.731v68h69.115zM709.079 726.865h101.154l-41.154 124.538-6.846 26.885c-0.769 6.077-1.154 9.885-1.154 11.423h-2.308l-1.692-11.423c0-0.385-0.692-3.808-2-10.308-1.346-6.462-2.769-12-4.308-16.577l-41.692-124.538z" />
<glyph unicode="&#xe61a;" glyph-name="sort-up" d="M46.344 758.865c0 4.577 1.923 9.154 5.731 13.731l182.269 182.269c3.808 3.423 8.192 5.115 13.154 5.115 4.577 0 8.962-1.692 13.154-5.115l182.846-182.846c5.692-6.115 7.038-12.769 4-20-3.038-7.615-8.769-11.423-17.154-11.423h-109.692v-786.308c0-5.308-1.731-9.692-5.154-13.154-3.423-3.423-7.808-5.115-13.154-5.115h-109.692c-5.346 0-9.731 1.692-13.154 5.115-3.423 3.462-5.154 7.846-5.154 13.154v786.308h-109.692c-5.346 0-9.731 1.692-13.154 5.115s-5.154 7.808-5.154 13.154zM977.656 581.711v-60.577h-164.577v60.577h42.846l-26.846 82.269h-138.846l-26.885-82.269h42.885v-60.577h-164v60.577h40l131.423 378.269h92.577l131.423-378.269h40zM926.771 69.135v-133.115h-333.692v51.423l210.846 302.269c4.577 6.846 8.577 12 12 15.423l6.308 5.154v1.692c-0.769 0-2-0.077-3.731-0.269s-3.154-0.308-4.269-0.308c-4.577-1.115-10.308-1.692-17.154-1.692h-132.577v-65.731h-68.577v130.885h324v-50.885l-210.846-302.846c-2.308-3.038-6.308-8-12-14.846l-6.308-6.269v-1.154l8 1.154c3.462 0.769 9.154 1.115 17.154 1.115h141.731v68h69.115zM709.079 726.865h101.154l-41.154 124.538-6.846 26.885c-0.769 6.077-1.154 9.885-1.154 11.423h-2.308l-1.692-11.423c0-0.385-0.692-3.808-2-10.308-1.346-6.462-2.769-12-4.308-16.577l-41.692-124.538z" />
<glyph unicode="&#xe61b;" glyph-name="spinner-down" d="M793.654 766.961c7.231-7.231 10.923-15.808 10.923-25.692 0-9.923-3.692-18.5-10.923-25.731l-256-256c-7.231-7.231-15.769-10.846-25.692-10.846s-18.462 3.615-25.692 10.846l-256 256c-7.231 7.231-10.846 15.808-10.846 25.731 0 9.885 3.615 18.462 10.846 25.692 7.231 7.269 15.769 10.885 25.692 10.885h512c9.923 0 18.462-3.615 25.692-10.885z" />
<glyph unicode="&#xe61c;" glyph-name="spinner-up" d="M230.346 177.038c-7.231 7.231-10.923 15.808-10.923 25.692 0 9.923 3.692 18.5 10.923 25.731l256 256c7.231 7.231 15.769 10.846 25.692 10.846s18.462-3.615 25.692-10.846l256-256c7.231-7.231 10.846-15.808 10.846-25.731 0-9.885-3.615-18.462-10.846-25.692-7.231-7.269-15.769-10.885-25.692-10.885h-512c-9.923 0-18.462 3.615-25.692 10.885z" />
<glyph unicode="&#xe61d;" glyph-name="square-edit" d="M804.577 318.865v-108.577c0-45.346-16.115-84.115-48.308-116.269-32.192-32.231-70.923-48.308-116.269-48.308h-475.423c-45.346 0-84.115 16.077-116.308 48.308-32.192 32.154-48.269 70.923-48.269 116.269v475.423c0 45.308 16.077 84.077 48.269 116.308 32.192 32.154 70.962 48.269 116.308 48.269h475.423c24 0 46.269-4.769 66.846-14.269 5.731-2.692 9.154-7.077 10.308-13.154 1.115-6.5-0.577-12-5.154-16.577l-28-28c-5.346-5.346-11.423-6.885-18.269-4.577-8.769 2.308-17.346 3.423-25.731 3.423h-475.423c-25.154 0-46.692-8.962-64.577-26.846-17.923-17.923-26.846-39.423-26.846-64.577v-475.423c0-25.154 8.923-46.654 26.846-64.577 17.885-17.923 39.423-26.846 64.577-26.846h475.423c25.154 0 46.654 8.923 64.577 26.846 17.885 17.923 26.846 39.423 26.846 64.577v72c0 4.962 1.731 9.115 5.154 12.577l36.577 36.538c5.692 5.731 12.346 7.077 20 4 7.615-3.038 11.423-8.538 11.423-16.538zM749.731 740.558l164.538-164.538-384-384h-164.538v164.538l384 384zM507.423 246.865l66.308 66.269-86.885 86.885-66.269-66.308v-32h54.846v-54.846h32zM758.846 658.288c-6.077 6.077-12.385 5.885-18.846-0.577l-200-200c-6.5-6.462-6.654-12.769-0.577-18.846 6.077-6.115 12.385-5.923 18.846 0.538l200 200c6.5 6.5 6.692 12.769 0.577 18.885zM1003.423 665.134l-52.577-52.577-164.577 164.577 52.577 52.577c10.654 10.654 23.615 16 38.885 16 15.231 0 28.154-5.346 38.846-16l86.846-86.846c10.654-10.692 16-23.615 16-38.846 0-15.269-5.346-28.231-16-38.885z" />
<glyph unicode="&#xe61e;" glyph-name="sencha" d="M573.846 235.949c41.402-20.080 69.979-62.497 69.979-111.613 0-47.507-26.718-88.748-65.948-109.567l58.23 29.733c95.814 47.836 161.625 146.832 161.625 261.205 0 112.706-63.924 210.483-157.488 259.064l-190.088 95.283c-41.41 20.060-69.975 62.503-69.975 111.623 0 47.488 26.72 88.74 65.943 109.552l-58.227-29.748c-95.829-47.823-161.628-146.815-161.628-261.179 0-112.717 63.914-210.504 157.486-259.078l190.092-95.277z" />
<glyph unicode="&#xe900;" glyph-name="op-like" horiz-adv-x="1028" d="M1151.298 575.428c2.017-35.337 14.147-347.147-183.426-419.273-199.509-72.833-407.457 225.307-430.524 259.585-57.145 84.592-204.538 248.616-295.226 215.509-99.966-36.493-111.453-236.477-107.58-303.659 1.818-31.977-22.505-59.346-54.341-61.21-31.88-1.821-59.202 22.591-61.029 54.507-2.015 35.337-14.145 347.147 183.428 419.273 199.507 72.832 407.457-225.307 430.524-259.585 57.145-84.592 204.538-248.616 295.226-215.509 99.966 36.493 111.453 236.477 107.58 303.659-1.791 31.987 22.641 59.214 54.341 61.21 31.88 1.821 59.202-22.591 61.027-54.508z" />
<glyph unicode="&#xe901;" glyph-name="op-nlike" horiz-adv-x="1027" d="M748.154 803.514l64.166-44.867c8.538-5.917 13.622-13.681 15.251-23.304 1.606-9.474-0.618-18.58-6.675-27.319l-192.759-275.264c1.837-2.641 3.299-4.784 4.366-6.366 57.431-84.761 205.56-249.113 296.702-215.94 100.465 36.566 112.011 236.95 108.118 304.266-1.8 32.051 22.755 59.333 54.613 61.333 32.040 1.825 59.498-22.636 61.332-54.617 2.027-35.407 14.218-347.841-184.343-420.111-171.485-62.416-349.175 147.068-411.522 230.503l-160.893-229.759c-6.060-8.74-13.846-13.981-23.368-15.73h0.009c-9.486-1.741-18.531 0.421-27.097 6.483l-64.14 44.814c-8.564 6.058-13.692 13.862-15.298 23.336-1.63 9.623 0.617 18.712 6.694 27.306l187.194 267.301c-68.561 73.931-158.248 144.615-220.958 121.79-100.465-36.566-112.011-236.95-108.118-304.266 1.827-32.041-22.618-59.464-54.613-61.333-32.040-1.825-59.498 22.636-61.334 54.616-2.025 35.408-14.216 347.842 184.345 420.112 120.681 43.924 244.435-46.811 328.9-133.507l168.962 241.276c6.060 8.741 13.846 13.981 23.368 15.73 9.486 1.741 18.531-0.422 27.098-6.484z" />
<glyph unicode="&#xe902;" glyph-name="op-eq" horiz-adv-x="1027" d="M57.756 372.759l957.538-0.076c13.766 0.049 25.102-3.323 34.026-10.121l-0.006 0.007c8.888-6.773 13.311-15.423 13.243-25.917l0.103-78.251c-0.066-10.491-4.533-19.168-13.385-25.919-8.992-6.855-20.298-10.228-33.921-10.18l-957.57 0.050c-13.766-0.050-25.102 3.323-34.026 10.121-8.888 6.773-13.31 15.423-13.243 25.919l-0.066 78.304c-0.065 10.388 4.393 19.007 13.386 25.862 8.853 6.751 20.158 10.151 33.921 10.202zM57.756 673.698l957.538-0.076c13.766 0.049 25.102-3.323 34.026-10.121l-0.006 0.007c8.888-6.773 13.311-15.423 13.243-25.917l0.103-78.251c-0.066-10.491-4.533-19.168-13.385-25.919-8.992-6.855-20.298-10.228-33.921-10.18l-957.57 0.050c-13.766-0.050-25.102 3.323-34.026 10.121-8.888 6.773-13.31 15.423-13.243 25.919l-0.066 78.304c-0.065 10.388 4.393 19.007 13.386 25.862 8.853 6.751 20.158 10.151 33.921 10.202z" />
<glyph unicode="&#xe903;" glyph-name="op-neq" horiz-adv-x="1027" d="M1062.661 302.854c0-40.091-45.336-72.583-101.275-72.583h-530.53l-151.492-162.858c-15.586-16.785-41.302-25.858-67.489-25.858-15.429 0-31.015 3.176-44.862 9.753-37.267 17.806-47.316 53.813-22.47 80.522l91.568 98.441h-125.431c-55.939 0-101.275 32.492-101.275 72.583s45.336 72.583 101.275 72.583h260.466l135.035 145.166h-395.501c-55.939 0-101.275 32.492-101.275 72.583s45.336 72.583 101.275 72.583h530.53l151.492 162.858c24.686 26.653 74.928 33.853 112.352 16.104 37.267-17.805 47.316-53.813 22.47-80.522l-91.568-98.441h125.431c55.939 0 101.275-32.492 101.275-72.583s-45.336-72.583-101.275-72.583h-260.466l-135.035-145.166h395.501c55.939 0 101.275-32.492 101.275-72.583z" />
<glyph unicode="&#xe904;" glyph-name="op-empty" horiz-adv-x="1027" d="M908.676 844.682c-20.015 20.010-52.762 20.010-72.776 0.003l-108.353-108.323c-76.655 57.415-176.845 85.416-283.477 65.671-143.591-26.588-259.541-142.514-286.105-286.108-19.716-106.575 8.288-206.705 65.703-283.32l-108.345-108.305c-20.017-20.012-20.017-52.762 0-72.773l0.187-0.188c20.054-20.052 52.569-20.036 72.605 0.031l108.337 108.467c76.655-57.411 176.845-85.413 283.477-65.668 143.591 26.585 259.541 142.511 286.105 286.105 19.716 106.578-8.288 206.705-65.703 283.32l108.345 108.311c20.017 20.010 20.017 52.762 0 72.776zM280.367 448.099c0 127.65 103.953 231.576 231.633 231.576 45.241 0 87.063-13.468 122.854-35.983l-318.495-318.416c-22.521 35.783-35.992 77.595-35.992 122.823zM512 216.523c-45.242 0-87.064 13.47-122.856 35.984l318.495 318.416c22.521-35.782 35.992-77.594 35.992-122.825 0-127.646-103.953-231.576-231.632-231.576z" />
<glyph unicode="&#xe905;" glyph-name="op-exists" horiz-adv-x="1028" d="M218.384 124.529c0-48.704 39.485-88.219 88.219-88.219h411.69c48.734 0 88.219 39.515 88.219 88.219v646.941c0 48.704-39.485 88.219-88.219 88.219h-411.69c-48.734 0-88.219-39.515-88.219-88.219s39.485-88.219 88.219-88.219h323.471v-147.032h-205.845c-48.734 0-88.219-39.515-88.219-88.219s39.485-88.219 88.219-88.219h205.845v-147.032h-323.471c-48.734 0-88.219-39.515-88.219-88.219z" />
<glyph unicode="&#xe906;" glyph-name="op-in" horiz-adv-x="1027" d="M528.718 95.123h-396.987c-40.607 0-73.516 32.909-73.516 73.516s32.909 73.516 73.516 73.516h396.987c113.49 0 205.845 92.355 205.845 205.845s-92.355 205.845-205.845 205.845h-396.987c-40.607 0-73.516 32.909-73.516 73.516s32.909 73.516 73.516 73.516h396.987c194.588 0 352.877-158.289 352.877-352.877s-158.289-352.877-352.877-352.877z" />
<glyph unicode="&#xe907;" glyph-name="op-nin" horiz-adv-x="1027" d="M735.164 887.134l64.173-44.856c8.545-5.906 13.132-14.381 13.756-25.438 0.618-10.886-2.869-21.794-10.462-32.727l-30.185-43.104c67.397-64.305 109.447-154.956 109.447-255.249 0-194.588-158.289-352.877-352.877-352.877h-182.462l-75.209-107.392c-7.597-10.935-16.648-17.983-27.167-21.155l0.009 0.001c-10.478-3.158-20.017-1.701-28.575 4.371l-64.151 44.797c-8.556 6.069-13.186 14.585-13.804 25.47-0.626 11.056 2.883 21.949 10.48 32.714l14.84 21.193h-30.949c-40.607 0-73.516 32.909-73.516 73.516s32.909 73.516 73.516 73.516l133.914 0.001 287.307 410.27c-7.95 0.937-16.037 1.419-24.235 1.419h-396.987c-40.607 0-73.516 32.909-73.516 73.516s32.909 73.516 73.516 73.516h396.987c40.163 0 78.779-6.743 114.776-19.157l35.628 50.872c7.597 10.936 16.648 17.983 27.167 21.155 10.478 3.158 20.017 1.7 28.577-4.372zM686.454 618.221l-236.928-338.306 79.49-0.001c113.49 0 205.845 92.355 205.845 205.845 0 50.402-18.215 96.635-48.407 132.462z" />
<glyph unicode="&#xe908;" glyph-name="op-identical" horiz-adv-x="1028" d="M921.3 517.269h-822.545c-37.856 0-68.545-30.689-68.545-68.545v0c0-37.856 30.689-68.545 68.545-68.545h822.545c37.856 0 68.545 30.689 68.545 68.545v0c0 37.856-30.689 68.545-68.545 68.545zM921.3 174.541h-822.545c-37.856 0-68.545-30.689-68.545-68.545v0c0-37.856 30.689-68.545 68.545-68.545h822.545c37.856 0 68.545 30.689 68.545 68.545v0c0 37.856-30.689 68.545-68.545 68.545zM921.3 859.996h-822.545c-37.856 0-68.545-30.689-68.545-68.545v0c0-37.856 30.689-68.545 68.545-68.545h822.545c37.856 0 68.545 30.689 68.545 68.545v0c0 37.856-30.689 68.545-68.545 68.545z" />
<glyph unicode="&#xe909;" glyph-name="op-nidentical" horiz-adv-x="1027" d="M805.387 930.412l64.177-44.851c3.836-2.648 6.823-5.889 8.958-9.724h44.818c37.895 0 68.615-30.72 68.615-68.615v0l-0.009-1.135c-0.606-37.371-31.090-67.48-68.606-67.48v0l-112.664 0.001-144.157-205.845 256.821-0.001c37.516 0 68-30.109 68.606-67.48l0.009-1.135-0.009-1.135c-0.606-37.371-31.090-67.48-68.606-67.48v0h-352.926l-144.156-205.845h497.083c37.516 0 68-30.109 68.606-67.48l0.009-1.135-0.009-1.135c-0.606-37.371-31.090-67.48-68.606-67.48v0h-593.187l-46.961-67.058c-8.397-12.078-18.107-20.066-29.143-23.978l0.010 0.001c-10.995-3.895-20.791-2.806-29.344 3.272l-64.157 44.788c-8.552 6.074-12.922 14.961-13.026 26.581-0.048 5.457 0.817 10.92 2.59 16.392h-50.16c-37.895 0-68.615 30.72-68.615 68.615v0l0.009 1.135c0.606 37.371 31.090 67.48 68.606 67.48v0h142.719l144.149 205.845h-286.868c-37.516 0-68 30.109-68.606 67.48l-0.009 1.135 0.009 1.135c0.606 37.371 31.090 67.48 68.606 67.48v0l382.968 0.001 144.149 205.845-527.117-0.001c-37.516 0-68 30.109-68.606 67.48l-0.009 1.135 0.009 1.135c0.606 37.371 31.090 67.48 68.606 67.48v0h623.216l23.72 33.871c8.396 12.078 18.107 20.066 29.143 23.978 10.995 3.895 20.79 2.804 29.346-3.273z" />
<glyph unicode="&#xe90a;" glyph-name="op-fn" horiz-adv-x="1028" d="M274.443 728.995h52.278c36.095 0 65.348 29.253 65.348 65.348s-29.253 65.348-65.348 65.348h-52.278c-86.484 0-156.834-70.35-156.834-156.834v-117.626h-26.139c-36.095 0-65.348-29.253-65.348-65.348s29.253-65.348 65.348-65.348h26.139v-222.182c0-14.396-11.717-26.139-26.139-26.139-36.095 0-65.348-29.253-65.348-65.348s29.253-65.348 65.348-65.348c86.484 0 156.834 70.35 156.834 156.834v222.182h26.139c36.095 0 65.348 29.253 65.348 65.348s-29.253 65.348-65.348 65.348h-26.139v117.626c0 14.396 11.717 26.139 26.139 26.139zM860.325 465.358c-20.421 20.421-53.503 20.421-73.924 0l-54.524-54.524-54.524 54.524c-20.421 20.421-53.503 20.421-73.924 0s-20.421-53.503 0-73.924l54.524-54.524-54.524-54.524c-20.421-20.421-20.421-53.503 0-73.924 10.211-10.211 23.586-15.316 36.962-15.316s26.752 5.105 36.962 15.316l54.524 54.524 54.524-54.524c10.211-10.211 23.586-15.316 36.962-15.316s26.752 5.105 36.962 15.316c20.421 20.421 20.421 53.503 0 73.924l-54.524 54.524 54.524 54.524c20.421 20.421 20.421 53.503 0 73.924zM545.432 626.481c-22.718 17.766-55.596 13.632-73.362-9.139-50.849-65.295-80-167.504-80-280.433s29.152-215.137 80-280.433c10.312-13.223 25.704-20.166 41.275-20.166 11.232 0 22.54 3.575 32.087 11.027 22.795 17.766 26.879 50.594 9.139 73.362-35.737 45.897-57.945 128.756-57.945 216.209s22.208 170.312 57.945 216.209c17.74 22.769 13.656 55.596-9.139 73.362zM991.684 617.342c-17.791 22.821-50.618 26.956-73.362 9.139-22.795-17.766-26.879-50.594-9.139-73.362 35.737-45.897 57.945-128.756 57.945-216.209s-22.208-170.312-57.945-216.209c-17.74-22.769-13.656-55.596 9.139-73.362 9.547-7.453 20.856-11.027 32.087-11.027 15.545 0 30.963 6.943 41.275 20.166 50.849 65.295 80 167.504 80 280.433s-29.152 215.137-80 280.433z" />
<glyph unicode="&#xe90b;" glyph-name="op-gt" horiz-adv-x="1027" d="M853.682 431.403c0-32.487-18.361-62.159-47.409-76.69l-651.825-325.775c-50.745-25.362-98.6 5.425-115.084 38.375-21.17 42.331-3.982 93.835 38.362 115.001l498.421 249.089-498.421 249.085c-42.344 21.166-59.532 72.668-38.362 114.999 21.174 42.462 72.635 59.607 115.084 38.379l651.825-325.78c29.048-14.531 47.409-44.203 47.409-76.684z" />
<glyph unicode="&#xe90c;" glyph-name="op-gte" horiz-adv-x="1027" d="M101.584 318.086c11.4-28.892 39.079-46.525 68.399-46.525 8.96 0 18.092 1.665 26.966 5.111l558.713 220.559c28.085 11.084 46.521 38.193 46.521 68.409 0 30.21-18.436 57.319-46.521 68.409l-558.713 220.554c-37.907 14.762-80.518-3.676-95.365-41.41-14.905-37.795 3.617-80.469 41.377-95.405l385.492-152.147-385.492-152.151c-37.76-14.933-56.282-57.611-41.377-95.404zM787.509 183.342h-676.406c-40.585 0-73.487-32.913-73.487-73.516s32.902-73.516 73.487-73.516h676.406c40.585 0 73.487 32.913 73.487 73.516v0.004c0 40.599-32.902 73.512-73.487 73.512z" />
<glyph unicode="&#xe90d;" glyph-name="op-lt" horiz-adv-x="1027" d="M851.932 84.031c-16.483-32.95-64.337-63.737-115.082-38.375l-651.827 325.775c-29.048 14.531-47.407 44.203-47.407 76.69 0 32.481 18.359 62.152 47.407 76.684l651.827 325.78c42.447 21.228 93.908 4.083 115.082-38.379 21.17-42.331 3.984-93.833-38.36-114.999l-498.421-249.085 498.421-249.089c42.344-21.166 59.53-72.67 38.36-115.001z" />
<glyph unicode="&#xe90e;" glyph-name="op-lte" horiz-adv-x="1027" d="M142.95 497.232l558.713-220.559c8.873-3.446 18.006-5.111 26.966-5.111 29.32 0 56.999 17.633 68.399 46.525 14.905 37.793-3.617 80.471-41.377 95.404l-385.492 152.151 385.492 152.147c37.76 14.937 56.282 57.611 41.377 95.405-14.847 37.734-57.458 56.172-95.365 41.41l-558.713-220.554c-28.085-11.090-46.521-38.199-46.521-68.409 0-30.215 18.436-57.324 46.521-68.409zM787.509 183.342h-676.406c-40.585 0-73.487-32.913-73.487-73.512v-0.004c0-40.603 32.902-73.516 73.487-73.516h676.406c40.585 0 73.487 32.913 73.487 73.516s-32.902 73.516-73.487 73.516z" />
<glyph unicode="&#xe90f;" glyph-name="groups" d="M958.247 896.261v-168.098h-55.902v-168.098h55.902v-56.033h-55.902v-168.097l55.902-0.001v-56.033h-279.509c-30.494 0-55.399 24.658-55.894 55.108l-0.008 0.924-0.001 103.646-223.607-181.498 0.001-202.311c0-30.874-25.1-56.033-55.902-56.033h-279.509v56.033h55.902v168.098h-55.902v56.033h55.902v168.098h-55.902v168.098h279.509c30.858 0 55.902-25.103 55.902-56.033l-0.001-225.376 223.607 181.498 0.001 324.042 0.007 0.926c0.489 30.198 24.851 54.614 54.98 55.099l0.915 0.007h279.509zM343.328 223.869h-167.705v-168.098h167.705v168.098zM343.327 448h-167.705v-168.098h167.705l-0.001 168.098zM846.444 504.033h-167.705v-168.098l167.705 0.001 0.001 168.097zM846.444 728.163h-167.706v-168.098h167.705v168.098z" />
<glyph unicode="&#xe910;" glyph-name="add" d="M960 448c0-47.587-38.567-86.154-86.154-86.154h-275.692v-275.692c0-47.587-38.567-86.154-86.154-86.154s-86.154 38.567-86.154 86.154v275.692h-275.692c-47.587 0-86.154 38.567-86.154 86.154s38.567 86.154 86.154 86.154h275.692v275.692c0 47.587 38.567 86.154 86.154 86.154s86.154-38.567 86.154-86.154v-275.692h275.692c47.587 0 86.154-38.567 86.154-86.154z" />
<glyph unicode="&#xe911;" glyph-name="remove" d="M960 448c0-53.026-38.567-96-86.154-96h-723.692c-47.587 0-86.154 42.974-86.154 96s38.567 96 86.154 96h723.692c47.587 0 86.154-42.974 86.154-96z" />
<glyph unicode="&#xe912;" glyph-name="summary" d="M904.019 896c30.968 0 56-25.088 56-56v-798l-1.767-0.001c-6.222-24.144-28.155-41.999-54.233-41.999h-784c-26.031 0-47.997 17.855-54.23 41.999l-1.77 0.001v798c0 30.912 25.088 56 56 56h784zM270.072 224c1.104 0 2.007-0.725 2.090-1.661 0.222-3.035 1.141-14.422 2.241-25.902l0.153-1.589c0.309-3.176 0.63-6.331 0.952-9.288 0.094-0.946-0.681-1.787-1.796-1.913l-8.852-0.999c-1.033-0.116-2.007 0.441-2.266 1.293-3.874 12.298-6.809 18.268-10.835 22.031l-0.070 0.063c-4.461 4.625-13.383 7.452-34.89 7.452h-50.773l62.935-63.656c0.646-0.662 0.634-1.629-0.012-2.281l-71.634-70.709h80.92c18.748 0 27.505 4.362 36.897 26.183 0.364 0.851 1.432 1.324 2.465 1.104l8.852-1.924c1.115-0.231 1.773-1.177 1.514-2.102l-11.904-42.749c-0.211-0.799-1.057-1.356-2.019-1.356h-151.943c-1.15 0-2.078 0.778-2.078 1.755v6.233c0 0.431 0.188 0.841 0.528 1.167l78.607 74.84-74.639 75.565c-0.317 0.326-0.481 0.725-0.481 1.135v5.55c0 0.967 0.916 1.755 2.066 1.755h143.972zM904.023 672h-224.021v-168h224v-56h-224v-168h224v-13.999h0.054l-0.033 405.999zM344.002 448h-223.984v-168h223.984v168zM624.002 448h-224v-168h224v168zM344.002 672h-223.984v-168h223.984v168zM624.002 672h-224v-168h224v168zM344.019 224v-168h560v168h-560z" />
<glyph unicode="&#xe913;" glyph-name="lock-open" d="M758.365 894.77c-133.523 14.642-246.365-103.511-246.365-250.77v-140h-348.445c-54.983 0-99.556-50.141-99.556-112v-280c0-61.852 44.573-112 99.556-112h497.779c54.983 0 99.556 50.148 99.556 112v280c0 61.859-44.573 112-99.556 112h-49.778v140c0 82.052 63.036 147.807 137.466 139.248 64.738-7.438 111.423-74.293 111.423-147.506v-103.742c0-15.463 11.144-28 24.889-28h49.778c13.745 0 24.889 12.537 24.889 28v100.79c0 131.537-85.263 249.225-201.636 261.981z" />
<glyph unicode="&#xe914;" glyph-name="lock" d="M832 504h-32v140c0 138.96-129.188 252-288 252s-288-113.040-288-252v-140h-32c-70.692 0-128-50.141-128-112v-280c0-61.852 57.308-112 128-112h640c70.692 0 128 50.148 128 112v280c0 61.859-57.308 112-128 112zM352 644c0 77.219 71.782 140 160 140s160-62.781 160-140v-140h-320v140z" />
</font>
</defs>
</svg>
